Être notifié de l'ajout d'un lien.

Télécharger Dora et la Cité perdue

Qualité HDLight 1080p MULTI
Dora et la Cité perdue
infos upload
synopsis
Après des années à explorer la jungle avec ses parents, Dora se prépare à vivre l'épreuve la plus difficile de sa vie : l'entrée au lycée ! Son âme d'exploratrice ressurgit quand elle doit voler à la rescousse de ses parents en danger. Accompagnée de son fidèle singe Babouche, de son cousin Diego et de nouveaux amis hauts en couleur, Dora embarque dans une folle aventure qui l'amènera à percer le mystère de la Cité d'or perdue. Show/hide text Dora.and.the.Lost.City.of.Gold.2019.MULTi.TRUEFRENCH.1080p.HDLight.AC3.x264-RDH.WwW.Zone-Telechargement.NET.mkv Format : Matroska Format version : Version 4 File size : 2.79 GiB Duration : 1 h 42 min Overall bit rate : 3 898 kb/s Encoded date : UTC 2019-12-08 02:39:22 Writing application : mkvmerge v29.0.0 ('Like It Or Not') 32-bit Writing library : libebml v1.3.6 + libmatroska v1.4.9 / Lavf58.29.100 Video ID : 1 Format : AVC Format/Info : Advanced Video Codec Format profile : [email protected] Format settings : CABAC / 4 Ref Frames Format settings, CABAC : Yes Format settings, ReFrames : 4 frames Codec ID : V_MPEG4/ISO/AVC Duration : 1 h 42 min Bit rate : 3 000 kb/s Width : 1 920 pixels Height : 800 pixels Display aspect ratio : 2.40:1 Frame rate mode : Constant Frame rate : 23.976 (24000/1001) FPS Color space : YUV Chroma subsampling : 4:2:0 Bit depth : 8 bits Scan type : Progressive Bits/(Pixel*Frame) : 0.081 Stream size : 2.15 GiB (77%) Writing library : x264 core 157 r2935 545de2f Encoding settings : cabac=1 / ref=2 / deblock=1:0:0 / analyse=0x1:0x111 / me=hex / subme=6 / psy=1 / psy_rd=1.00:0.00 / mixed_ref=1 / me_range=16 / chroma_me=1 / trellis=1 / 8x8dct=0 / cqm=0 / deadzone=21,11 / fast_pskip=1 / chroma_qp_offset=-2 / threads=25 / lookahead_threads=4 / sliced_threads=0 / nr=0 / decimate=1 / interlaced=0 / bluray_compat=0 / constrained_intra=0 / bframes=3 / b_pyramid=2 / b_adapt=1 / b_bias=0 / direct=1 / weightb=1 / open_gop=0 / weightp=1 / keyint=240 / keyint_min=24 / scenecut=40 / intra_refresh=0 / rc_lookahead=30 / rc=2pass / mbtree=1 / bitrate=3000 / ratetol=1.0 / qcomp=0.60 / qpmin=0 / qpmax=69 / qpstep=4 / cplxblur=20.0 / qblur=0.5 / vbv_maxrate=20000 / vbv_bufsize=25000 / nal_hrd=none / filler=0 / ip_ratio=1.40 / aq=1:1.00 Default : Yes Forced : No Color range : Limited Color primaries : BT.709 Transfer characteristics : BT.709 Matrix coefficients : BT.709 Audio #1 ID : 2 Format : AC-3 Format/Info : Audio Coding 3 Commercial name : Dolby Digital Codec ID : A_AC3 Duration : 1 h 42 min Bit rate mode : Constant Bit rate : 448 kb/s Channel(s) : 6 channels Channel layout : L R C LFE Ls Rs Sampling rate : 48.0 kHz Frame rate : 31.250 FPS (1536 SPF) Bit depth : 16 bits Compression mode : Lossy Delay relative to video : -5 ms Stream size : 328 MiB (11%) Language : French Service kind : Complete Main Default : Yes Forced : No Audio #2 ID : 3 Format : AC-3 Format/Info : Audio Coding 3 Commercial name : Dolby Digital Codec ID : A_AC3 Duration : 1 h 42 min Bit rate mode : Constant Bit rate : 448 kb/s Channel(s) : 6 channels Channel layout : L R C LFE Ls Rs Sampling rate : 48.0 kHz Frame rate : 31.250 FPS (1536 SPF) Bit depth : 16 bits Compression mode : Lossy Delay relative to video : -5 ms Stream size : 328 MiB (11%) Language : English Service kind : Complete Main Default : No Forced : No Text #1 ID : 4 Format : UTF-8 Codec ID : S_TEXT/UTF8 Codec ID/Info : UTF-8 Plain Text Duration : 1 h 42 min Bit rate : 1 b/s Count of elements : 32 Stream size : 852 Bytes (0%) Title : FORCED Language : French Default : Yes Forced : Yes Text #2 ID : 5 Format : UTF-8 Codec ID : S_TEXT/UTF8 Codec ID/Info : UTF-8 Plain Text Duration : 1 h 41 min Bit rate : 63 b/s Count of elements : 1400 Stream size : 47.0 KiB (0%) Title : FULL Language : French Default : No Forced : No Menu 00:00:00.000 : :00:00:00.000 00:04:52.417 : :00:04:52.417 00:09:49.089 : :00:09:49.088 00:15:35.643 : :00:15:35.643 00:20:26.767 : :00:20:26.767 00:25:47.838 : :00:25:47.838 00:35:15.780 : :00:35:15.780 00:42:53.738 : :00:42:53.738 00:47:13.664 : :00:47:13.664 00:52:57.883 : :00:52:57.883 00:55:41.463 : :00:55:41.463 01:01:02.659 : :01:01:02.659 01:06:11.426 : :01:06:11.301 01:10:23.136 : :01:10:23.136 01:13:52.136 : :01:13:52.136 01:18:26.327 : :01:18:26.327 01:22:39.496 : :01:22:39.496 01:32:57.363 : :01:32:57.322 01:38:30.363 : :01:38:30.238
8-12-2019, 07:13





Dites merci aux uploaders pour leurs travail, ça ne coûte rien et ça fait toujours plaisir